Pesquisar este blog

28/04/2010

Glinka, Roslavets e Shostakovich - Sonatas para viola e piano

Glinka, Roslavets e Shostakovich - Sonatas para viola e piano

Mikhail Glinka (1804-1857) - Sonata para Viola e Piano in D menor (18:21)
1. Allegro moderato [9:59]
2. Larghetto ma non troppo [8:14]

Nikolai Roslavets (1881-1944) - Sonata para viola e piano (12:23)
3. Sonata para viola e piano [12:23]

Dmitri Shostakovich (1906-1975) - Sonata para viola e piano, Op. 147 (36:11)
4. Moderato [11:24]
5. Allegretto [6:52]
6. Adagio [17:53]

Yuri Bashmet, viola
Mikhail Muntian, piano

Um comentário:

  1. El .cue

    TITLE "Glinka - Roslavets - Shostakovich, Viola Sonatas"
    PERFORMER "Yuri Bashmet - Mikhail Muntian"
    REM Time : 67:33:00
    REM Length: 4053 seconds
    FILE "Glinka, Roslavets, Shostakovich - Viola Sonatas - Bashmet, Muntian.mp3" MP3
    TRACK 01 AUDIO
    TITLE "Glinka: Sonata for Viola and Piano, 1. Allegro Moderato"
    PREGAP 00:02:00
    INDEX 01 00:00:00
    TRACK 02 AUDIO
    TITLE "Glinka: Sonata for Viola and Piano, 1. Larghetto ma non troppo"
    INDEX 01 10:04:20
    TRACK 03 AUDIO
    TITLE "Roslavets: Sonata for Viola And Piano"
    INDEX 01 18:35:21
    TRACK 04 AUDIO
    TITLE "Shostakovich: Sonata for Viola and Piano, Op. 147a, 1. Moderato"
    INDEX 01 31:09:21
    TRACK 05 AUDIO
    TITLE "Shostakovich: Sonata for Viola and Piano, Op. 147a, 2. Allegtretto"
    INDEX 01 42:36:58
    TRACK 06 AUDIO
    TITLE "Shostakovich: Sonata for Viola and Piano, Op. 147a, 3. Adagio"
    INDEX 01 49:30:56

    ResponderExcluir